PlayStation Classic Guide (RUS)

Введение

Еще одна мини-консоль после успешных NES и SNES mini, на этот раз от Sony. Консоль – это миниатюрная копия первой PlayStation (также известной как PSX и PlayStation 1), но не использует оригинальные контроллеры, CD-диски или другие аксессуары. Как и NES или SNES mini, это только эмуляция на основе Linux с кастомной начинкой, несовместимой с оригиналом. Выпуск консоли вызвал много критики из-за выбранных игр и использованного программного обеспечения эмуляции. Многие игры работают в PAL-режиме, который немного медленнее, чем NTSC.

Комплектация

Внутри коробки:
  • консоль
  • два контроллера (USB)
  • HDMI кабель
  • кабель micro USB на USB
  • бумажные инструкции

Подключение

Подключение очень простое:
  1. HDMI к ТВ и приставке
  2. Micro USB к приставке и источнику питания. Возможно, вы сможете подключить его к ТВ напрямую, но в моем случае это не сработало, и мне пришлось использовать отдельный USB-адаптер, чтобы подключить к розетке.
  3. Подключить контроллер
Это всё, что касается подключения.

Первый запуск

Нажмите POWER (зеленая кнопка слева) и вы увидите знакомый экран загрузки (используемый в играх PSX). При самом первом запуске вы также можете выбрать язык. Язык применяется только к основному меню. Все игры на английском языке (US версии).

Главное меню

Сразу после экрана-заставки вы попадаете в главное меню. Здесь у вас есть доступ к 20 предустановленным играм. Каждая игра представлена своей обложкой. Вы также можете настроить параметры, посмотреть руководство к играм (точнее, получить QR-код для игры), управлять сохраненными данными или продолжить игры с точки продолжения (последнее сохранение).

Настройки

Настройки довольно бесполезны. Вы можете прочитать информацию о здоровье и безопасности, включить или отключить скринсейвер, изменить язык, включить/отключить режим энергосбережения, восстановить настройки по умолчанию, инициализировать консоль или прочитать юридические уведомления.

Использование кнопок

(также объясняется в опциях)
  • POWER: включение или выключение консоли. При включении светодиод зеленый, а при выключении (но подключении к источнику питания) светодиод оранжевый.
  • Нажатие RESET вызывает главное меню, а также создает текущую точку возобновления игры.
  • Кнопка OPEN используется для переключения между CD-дисками в играх с несколькими дисками.

Игры на многочисленных дисках

Управление сохраненными данными

Чтобы управлять сохраненными данными, выберите игру, затем нажмите ВНИЗ и выберите MEMORY CARD, затем нажмите X.
Сохраненные данные отображаются в меню, аналогичном оригинальному. Вы можете редактировать сохраненные данные (это обычные сохранения, которые не следует путать с точкой возобновления игры!).

Продолжить игру с точки возобновления

Каждый раз, когда вы покидаете запущенную игру кнопкой RESET, создается точка возобновления. Вы можете начать игру сначала или продолжить с точки возобновления.
В случае, если уже существующая точка возобновления будет перезаписана, появится сообщение с вопросом, хотите ли вы перезаписать ее или нет.

Игры

Список игр для разных регионов разный. Вот список игр для европейской версии. Игры, помеченные знаком *, используют PAL-режим.
  • Battle Arena Toshinden*
  • Cool Boarders*
  • Destruction Derby*
  • Grand Theft Auto*
  • Intelligent Cube
  • Jumping Flash*
  • Metal Gear Solid
  • Mr. Driller
  • Oddworld: Abe’s Oddysee*
  • Rayman
  • R4: Ridge Racer Type 4
  • Resident Evil: Director’s Cut*
  • Revelations: Persona
  • Syphon Filter
  • Super Puzzle Fighter II Turbo
  • Tekken 3*
  • Tom Clancy’s Rainbow Six*
  • Twisted Metal
  • Wild Arms

Скриншоты

Tekken 3

Краткий тест Tekken 3 (PAL-версия) Final Fantasy VII
Mister Driller

Загрузка пользовательских игр

Если вам не нравятся предустановленные игры или вы хотите играть в свои собственные игры, то есть неофициальный способ сделать это. Вам понадобится:
  1. USB-флешка, отформатированная в FAT32
  2. Приложение и данные с сайта https://github.com/pathartl/BleemSync
Если нужно, отформатируйте USB-накопитель и назовите его SONY. Сначала распакуйте папки в корневую папку USB-накопителя, чтобы выглядело так:
Внутри папки “Games” находятся пронумерованные папки. Каждая папка предназначена для отдельной игры. Внутри этих папок находится папка GameData.
В папке GameData есть несколько файлов. Вам понадобятся следующие:
  1. bin-файл (это дамп игрового CD)
  2. cue-файл (это файл описания для дампа, он содержит описания всех треков игрового CD)
  3. cfg-файл: вам не нужно его менять, он содержит конфигурации для программы эмуляции
  4. lic-файл: не понадобится
  5. png-файл: это обложка, должна быть png-файлом размером 266×266
  6. и, наконец, самый важный файл – ini-файл.
Вот содержимое файла Game.ini:
[Game] Discs=SLUS-00402 Title=Tekken 3 Publisher=Namco Players=2 Year=1998
Сначала напишите имя cue-файла в строке “Discs=”. Обратите внимание, что файл обложки должен иметь то же имя, что и cue-файл. Для игр с несколькими CD напишите имена cue-файлов в одной строке, разделенные запятой. Вот как выглядит файл cue. В нем перечислены все треки (bin-файлы).
FILE "Tekken 3 (Track 1).bin" BINARY
  TRACK 01 MODE2/2352
    INDEX 01 00:00:00
FILE "Tekken 3 (Track 2).bin" BINARY
  TRACK 02 AUDIO
    INDEX 00 00:00:00
    INDEX 01 00:02:00
FILE "Tekken 3 (Track 3).bin" BINARY
  TRACK 03 AUDIO
    INDEX 00 00:00:00
    INDEX 01 00:02:00
После подготовки всех игр необходимо обновить базу данных. Перейдите в папку “BleemSync” и запустите приложение BleemSync.exe. Появится окно командной строки, которое закроется. Вот и всё.
Теперь вставьте USB-накопитель во второй порт контроллера консоли и включите её. Теперь вы можете играть в игры, установленные на USB-накопителе. Этот метод не влияет на основную консоль, и если вы хотите играть в оригинальные игры, просто извлеките USB-накопитель и перезагрузите консоль.
Стандартные настройки работают (точки возобновления или управление данными сохранения).
Дополнительно, вы также можете вызвать меню эмуляторов, нажав кнопки “треугольник” и “select”. Теперь вы можете получить доступ к меню PCSX (это название программного обеспечения эмулятора) (PCSX-меню).
Здесь вы можете изменить некоторые настройки, но они вам не понадобятся.
Единственное интересное меню – это меню “Опции”, где вы можете включить отображение FPS, изменить регион и т.д.
1779 Всего 4 Сегодня